Kategorie
Ranking
Programy
Ostatnie 30
Popularne
w Maju
==Torrent==
Kategoria: Filmy XviD/DivX » Dokumentalny


Dodał: viola62
Data dodania:
2016-12-21 09:16:58
Rozmiar: 604.67 MB
Seedów: 25
Peerów: 4
Pobrano: 271 razy

Aktualizuj trackery






Ostatni rok Hitlera *2015* (2/2) [DVBRip.XviD.AC-3] [Lektor PL]




Tytuł: Ostatni rok Hitlera
Gatunek: Dokumentalny, Wojenny
Czas trwania odcinka: 44 min.
Premiera: 03.05.2015

http://www.youtube.com/watch?v=ukPvEPtpxHk





Dokument przedstawia działania wojenne w okresie bezpośrednio poprzedzającym kapitulację Niemiec.
Lądowanie aliantów w Normandii w 1944 r.
oraz sukcesy Armii Czerwonej na Wschodzie były zapowiedzią nieuchronnej porażki nazistów.
Hitler kazał im jednak walczyć do ostatniej kropli krwi.
Wraz ze zbliżającym się upadkiem narastały fanatyzm i frustracja w narodzie niemieckim, które zbierały krwawe żniwo.
Dokument przedstawia analizę decyzji podejmowanych przez Hitlera w schyłkowej fazie III Rzeszy oraz etapy jej upadku:
od przekonania, że zwycięstwo jest realne, po załamanie, samobójstwo i kapitulację.
Twórcy wykorzystali unikalne, "pokolorowane" materiały filmowe z tamtego czasu.





Format           : AVI
Format/Info         : Audio Video Interleave
File size          : 604 MiB
Duration          : 43mn 59s
Overall bit rate      : 1 920 Kbps
Writing application     : VirtualDubMod 1.5.10.2 (build 2540/release)
Writing library       : VirtualDubMod build 2540/release

Video
ID             : 0
Format           : MPEG-4 Visual
Format profile       : Advanced [email protected]
Format settings, BVOP    : 2
Format settings, QPel    : Yes
Format settings, GMC    : No warppoints
Format settings, Matrix   : Custom
Muxing mode         : Packed bitstream
Codec ID          : XVID
Codec ID/Hint        : XviD
Duration          : 43mn 59s
Bit rate          : 1 526 Kbps
Width            : 704 pixels
Height           : 392 pixels
Display aspect ratio    : 16:9
Frame rate         : 25.000 fps
Color space         : YUV
Chroma subsampling     : 4:2:0
Bit depth          : 8 bits
Scan type          : Progressive
Compression mode      : Lossy
Bits/(Pixel*Frame)     : 0.221
Stream size         : 480 MiB (79%)
Writing library       : XviD 73

Audio
ID             : 1
Format           : AC-3
Format/Info         : Audio Coding 3
Mode extension       : CM (complete main)
Format settings, Endianness : Big
Codec ID          : 2000
Duration          : 43mn 58s
Bit rate mode        : Constant
Bit rate          : 384 Kbps
Channel(s)         : 6 channels
Channel positions      : Front: L C R, Side: L R, LFE
Sampling rate        : 48.0 KHz
Compression mode      : Lossy
Stream size         : 121 MiB (20%)
Alignment          : Split accross interleaves
Interleave, duration    : 40 ms (1.00 video frame)
Interleave, preload duratio : 500 ms


PS/ POBRALES ----------> SEEDUJ /THX/

Lista plikówShow/Hide [Pokaż/Ukryj]
Trackery Show/Hide[Pokaż/Ukryj trackery]
Podobne Pliki

Komentarze
Dodaj komentarz

Brak komentarzy!